Suze R - Kayden Kross

Estado
Cerrado para nuevas respuestas.

sMk

Aborto de Forero
Registro
8 Feb 2010
Mensajes
1
Reacciones
0
Suze R - Kayden Kross





Format : Windows Media
File size : 136 MiB
Duration : 20mn 55s
Overall bit rate mode : Variable
Overall bit rate : 906 Kbps
Maximum Overall bit rate : 1 225 Kbps
Movie name : Kayden Kross & Charles Dera
Performer : Suze Randall /
Recorded date : 2006
Encoded date : UTC 2007-10-09 01:51:43.109
Copyright : Suze Randall

Video
ID : 2
Format : VC-1
Format profile : [email protected]
Codec ID : WMV3
Codec ID/Info : Windows Media Video 9
Codec ID/Hint : WMV3
Description of the codec : Windows Media Video 9
Duration : 20mn 53s
Bit rate mode : Variable
Bit rate : 748 Kbps
Width : 450 pixels
Height : 338 pixels
Display aspect ratio : 4:3
Frame rate : 29.970 fps
Resolution : 8 bits
Scan type : Progressive
Bits/(Pixel*Frame) : 0.164
Stream size : 112 MiB (82%)
Language : English (US)

Audio
ID : 1
Format : WMA
Format version : Version 2
Codec ID : 161
Codec ID/Info : Windows Media Audio
Description of the codec : Windows Media Audio 9 - 128 kbps, 48 kHz, stereo 2-pass CBR
Duration : 20mn 55s
Bit rate mode : Constant
Bit rate : 128 Kbps
Channel(s) : 2 channels
Sampling rate : 48.0 KHz
Resolution : 16 bits
Stream size : 19.2 MiB (14%)
Language : English (US)

Código:
http://hotfile.com/dl/26426710/32f8748/Suze_R_-_Kayden_Kross.wmv.html
 

IloveUbres

RangoForero del todo a cien
Registro
3 Nov 2009
Mensajes
173
Reacciones
0
Tio, que profesional, gracias por incluirnos al detalle toda la descripción del video de tu vieja, estara orgullosa de la publi que le hace su chiquillo.
 

RattenKrieg

RangoClásico
Registro
27 May 2005
Mensajes
2.328
Reacciones
0
¿Se casan al final?, yo es que sin final feliz paso de ver una peli.
 

Bela_Lugosi

Bela_Mugrosi
Registro
12 Abr 2009
Mensajes
27.969
Reacciones
258
Que sepáis que UBP le ha cascado un 7 en filmaffinity.
 

IloveUbres

RangoForero del todo a cien
Registro
3 Nov 2009
Mensajes
173
Reacciones
0
Hay mas acción que aqui.

 
Última edición por un moderador:

Scandalff

RangoClásico
Registro
27 Dic 2008
Mensajes
4.470
Reacciones
1
 
Estado
Cerrado para nuevas respuestas.
Arriba Pie